Use this forum to post questions and issues for discussion related to Browning cameras.
#362632
I have both cameras, Spec Ops was purchased a couple months before the Recon Force.
The video quality is the same.
Recon Force audio is way better than Spec Ops, beyond compare. I don't know if my Spec Ops is defective in audio.
Spec ops audio has a lot of hiss.

SAMPLES
https://drive.google.com/drive/folders/ ... sp=sharing





Recon Force Elite HP4


Spec Ops Elite HP4



Recon Force Elite HP4
Code: Select all
Video
ID                                       : 1
Format                                   : AVC
Format/Info                              : Advanced Video Codec
Format profile                           : High@L4.2
Format settings                          : 1 Ref Frames
Format settings, CABAC                   : No
Format settings, Reference frames        : 1 frame
Format settings, GOP                     : M=1, N=15
Codec ID                                 : avc1
Codec ID/Info                            : Advanced Video Coding
Duration                                 : 1 min 15 s
Bit rate                                 : 24.1 Mb/s
Width                                    : 1 920 pixels
Height                                   : 1 080 pixels
Display aspect ratio                     : 16:9
Frame rate mode                          : Constant
Frame rate                               : 60.000 FPS
Color space                              : YUV
Chroma subsampling                       : 4:2:0
Bit depth                                : 8 bits
Scan type                                : Progressive
Bits/(Pixel*Frame)                       : 0.193
Stream size                              : 216 MiB (97%)
Language                                 : English
Encoded date                             : UTC 2021-12-19 12:16:37
Tagged date                              : UTC 2021-12-19 12:16:37
Codec configuration box                  : avcC

Audio
ID                                       : 2
Format                                   : PCM
Format settings                          : Little / Signed
Codec ID                                 : sowt
Duration                                 : 1 min 15 s
Bit rate mode                            : Constant
Bit rate                                 : 705.6 kb/s
Channel(s)                               : 1 channel
Sampling rate                            : 44.1 kHz
Bit depth                                : 16 bits
Stream size                              : 6.33 MiB (3%)
Language                                 : English
Encoded date                             : UTC 2021-12-19 12:16:37
Tagged date                              : UTC 2021-12-19 12:16:37

Spec Ops Elite HP4
Code: Select all
Video
ID                                       : 1
Format                                   : AVC
Format/Info                              : Advanced Video Codec
Format profile                           : High@L4.2
Format settings                          : 1 Ref Frames
Format settings, CABAC                   : No
Format settings, Reference frames        : 1 frame
Format settings, GOP                     : M=1, N=15
Codec ID                                 : avc1
Codec ID/Info                            : Advanced Video Coding
Duration                                 : 1 min 19 s
Bit rate                                 : 24.1 Mb/s
Width                                    : 1 920 pixels
Height                                   : 1 080 pixels
Display aspect ratio                     : 16:9
Frame rate mode                          : Constant
Frame rate                               : 60.000 FPS
Color space                              : YUV
Chroma subsampling                       : 4:2:0
Bit depth                                : 8 bits
Scan type                                : Progressive
Bits/(Pixel*Frame)                       : 0.194
Stream size                              : 228 MiB (97%)
Language                                 : English
Encoded date                             : UTC 2021-12-05 11:37:02
Tagged date                              : UTC 2021-12-05 11:37:02
Codec configuration box                  : avcC

Audio
ID                                       : 2
Format                                   : PCM
Format settings                          : Little / Signed
Codec ID                                 : sowt
Duration                                 : 1 min 19 s
Bit rate mode                            : Constant
Bit rate                                 : 705.6 kb/s
Channel(s)                               : 1 channel
Sampling rate                            : 44.1 kHz
Bit depth                                : 16 bits
Stream size                              : 6.66 MiB (3%)
Language                                 : English
Encoded date                             : UTC 2021-12-05 11:37:02
Tagged date                              : UTC 2021-12-05 11:37:02


Bobcat's back.

Hi Reaperman! It seems that this bobcat always t[…]

Thief

I'm not sure what kind of egg this crow found but […]

Grey wolf

The change of the coat starts this season. This wo[…]

Bobcat

I love bobcats! In Italy it is extinct in many reg[…]